  0
SECTION
  2
HEADER
  9
$ACADVER
  1
AC1009
  9
$INSBASE
 10
0.0
 20
0.0
 30
0.0
  9
$EXTMIN
 10
1.000000E+20
 20
1.000000E+20
 30
1.000000E+20
  9
$EXTMAX
 10
-1.000000E+20
 20
-1.000000E+20
 30
-1.000000E+20
  9
$LIMMIN
 10
0.0
 20
0.0
  9
$LIMMAX
 10
0.0
 20
0.0
  9
$ORTHOMODE
 70
     0
  9
$REGENMODE
 70
     1
  9
$FILLMODE
 70
     1
  9
$QTEXTMODE
 70
     0
  9
$MIRRTEXT
 70
     1
  9
$DRAGMODE
 70
     2
  9
$LTSCALE
 40
1.0
  9
$OSMODE
 70
     0
  9
$ATTMODE
 70
     1
  9
$TEXTSIZE
 40
0.2
  9
$TRACEWID
 40
0.05
  9
$TEXTSTYLE
  7
STANDARD
  9
$CLAYER
  8
0
  9
$CELTYPE
  6
CONTINUOUS
  9
$CECOLOR
 62
   256
  9
$DIMSCALE
 40
1.0
  9
$DIMASZ
 40
0.18
  9
$DIMEXO
 40
0.0625
  9
$DIMDLI
 40
0.38
  9
$DIMRND
 40
0.0
  9
$DIMDLE
 40
0.0
  9
$DIMEXE
 40
0.18
  9
$DIMTP
 40
0.0
  9
$DIMTM
 40
0.0
  9
$DIMTXT
 40
0.18
  9
$DIMCEN
 40
0.09
  9
$DIMTSZ
 40
0.0
  9
$DIMTOL
 70
     0
  9
$DIMLIM
 70
     0
  9
$DIMTIH
 70
     1
  9
$DIMTOH
 70
     1
  9
$DIMSE1
 70
     0
  9
$DIMSE2
 70
     0
  9
$DIMTAD
 70
     0
  9
$DIMZIN
 70
     0
  9
$DIMBLK
  1

  9
$DIMASO
 70
     1
  9
$DIMSHO
 70
     1
  9
$DIMPOST
  1

  9
$DIMAPOST
  1

  9
$DIMALT
 70
     0
  9
$DIMALTD
 70
     2
  9
$DIMALTF
 40
25.4
  9
$DIMLFAC
 40
1.0
  9
$DIMTOFL
 70
     0
  9
$DIMTVP
 40
0.0
  9
$DIMTIX
 70
     0
  9
$DIMSOXD
 70
     0
  9
$DIMSAH
 70
     0
  9
$DIMBLK1
  1

  9
$DIMBLK2
  1

  9
$DIMSTYLE
  2
STANDARD
  9
$DIMCLRD
 70
     0
  9
$DIMCLRE
 70
     0
  9
$DIMCLRT
 70
     0
  9
$DIMTFAC
 40
1.0
  9
$DIMGAP
 40
0.09
  9
$LUNITS
 70
     2
  9
$LUPREC
 70
     4
  9
$AXISMODE
 70
     0
  9
$AXISUNIT
 10
0.0
 20
0.0
  9
$SKETCHINC
 40
0.1
  9
$FILLETRAD
 40
0.0
  9
$AUNITS
 70
     0
  9
$AUPREC
 70
     0
  9
$MENU
  1
acad
  9
$ELEVATION
 40
0.0
  9
$PELEVATION
 40
0.0
  9
$THICKNESS
 40
0.0
  9
$LIMCHECK
 70
     0
  9
$BLIPMODE
 70
     1
  9
$CHAMFERA
 40
0.0
  9
$CHAMFERB
 40
0.0
  9
$SKPOLY
 70
     0
  9
$TDCREATE
 40
0.000000000
  9
$TDUPDATE
 40
0.000000000
  9
$TDINDWG
 40
0.0000000000
  9
$TDUSRTIMER
 40
0.0000000000
  9
$USRTIMER
 70
     1
  9
$ANGBASE
 50
0.0
  9
$ANGDIR
 70
     0
  9
$PDMODE
 70
     0
  9
$PDSIZE
 40
0.0
  9
$PLINEWID
 40
0.0
  9
$COORDS
 70
     0
  9
$SPLFRAME
 70
     0
  9
$SPLINETYPE
 70
     6
  9
$SPLINESEGS
 70
     8
  9
$ATTDIA
 70
     0
  9
$ATTREQ
 70
     1
  9
$HANDLING
 70
     1
  9
$HANDSEED
  5
1E2
  9
$SURFTAB1
 70
     6
  9
$SURFTAB2
 70
     6
  9
$SURFTYPE
 70
     6
  9
$SURFU
 70
     6
  9
$SURFV
 70
     6
  9
$UCSNAME
  2

  9
$UCSORG
 10
0.0
 20
0.0
 30
0.0
  9
$UCSXDIR
 10
1.0
 20
0.0
 30
0.0
  9
$UCSYDIR
 10
0.0
 20
1.0
 30
0.0
  9
$PUCSNAME
  2

  9
$PUCSORG
 10
0.0
 20
0.0
 30
0.0
  9
$PUCSXDIR
 10
1.0
 20
0.0
 30
0.0
  9
$PUCSYDIR
 10
0.0
 20
1.0
 30
0.0
  9
$USERI1
 70
     0
  9
$USERI2
 70
     0
  9
$USERI3
 70
     0
  9
$USERI4
 70
     0
  9
$USERI5
 70
     0
  9
$USERR1
 40
0.0
  9
$USERR2
 40
0.0
  9
$USERR3
 40
0.0
  9
$USERR4
 40
0.0
  9
$USERR5
 40
0.0
  9
$WORLDVIEW
 70
     1
  9
$SHADEDGE
 70
     3
  9
$SHADEDIF
 70
    70
  9
$TILEMODE
 70
     1
  9
$MAXACTVP
 70
    16
  9
$PINSBASE
 10
0.0
 20
0.0
 30
0.0
  9
$PLIMCHECK
 70
     0
  9
$PEXTMIN
 10
1.000000E+20
 20
1.000000E+20
 30
1.000000E+20
  9
$PEXTMAX
 10
-1.000000E+20
 20
-1.000000E+20
 30
-1.000000E+20
  9
$PLIMMIN
 10
0.0
 20
0.0
  9
$PLIMMAX
 10
12.0
 20
9.0
  9
$UNITMODE
 70
     0
  9
$VISRETAIN
 70
     0
  9
$PLINEGEN
 70
     1
  9
$PSLTSCALE
 70
     0
  9
$TREEDEPTH
 70
  3020
  9
$DWGCODEPAGE
  3
dos850
  0
ENDSEC
  0
SECTION
  2
TABLES
  0
TABLE
  2
VPORT
 70
     1
  0
VPORT
  2
*ACTIVE
 70
     0
 10
0.0
 20
0.0
 11
1.0
 21
1.0
 12
6.591288
 22
4.579184
 13
0.0
 23
0.0
 14
1.0
 24
1.0
 15
0.0
 25
0.0
 16
0.0
 26
0.0
 36
1.0
 17
0.0
 27
0.0
 37
0.0
 40
9.158369
 41
0.688564
 42
50.0
 43
0.0
 44
0.0
 50
0.0
 51
0.0
 71
     0
 72
   100
 73
     1
 74
     1
 75
     0
 76
     0
 77
     0
 78
     0
  0
ENDTAB
  0
TABLE
  2
LTYPE
 70
    25
  0
LTYPE
  2
CONTINUOUS
 70
     0
  3
Solid line
 72
    65
 73
     0
 40
0.0
  0
LTYPE
  2
BORDER
 70
     0
  3
Border __ __ . __ __ . __ __ . __ __ . __ __ .
 72
    65
 73
     6
 40
1.75
 49
0.5
 49
-0.25
 49
0.5
 49
-0.25
 49
0.0
 49
-0.25
  0
LTYPE
  2
BORDER2
 70
     0
  3
Border (.5x) __.__.__.__.__.__.__.__.__.__.__.
 72
    65
 73
     6
 40
0.875
 49
0.25
 49
-0.125
 49
0.25
 49
-0.125
 49
0.0
 49
-0.125
  0
LTYPE
  2
BORDERX2
 70
     0
  3
Border (2x) ____  ____  .  ____  ____  .  ___
 72
    65
 73
     6
 40
3.5
 49
1.0
 49
-0.5
 49
1.0
 49
-0.5
 49
0.0
 49
-0.5
  0
LTYPE
  2
CENTER
 70
     0
  3
Center ____ _ ____ _ ____ _ ____ _ ____ _ ____
 72
    65
 73
     4
 40
2.0
 49
1.25
 49
-0.25
 49
0.25
 49
-0.25
  0
LTYPE
  2
CENTER2
 70
     0
  3
Center (.5x) ___ _ ___ _ ___ _ ___ _ ___ _ ___
 72
    65
 73
     4
 40
1.125
 49
0.75
 49
-0.125
 49
0.125
 49
-0.125
  0
LTYPE
  2
CENTERX2
 70
     0
  3
Center (2x) ________  __  ________  __  _____
 72
    65
 73
     4
 40
4.0
 49
2.5
 49
-0.5
 49
0.5
 49
-0.5
  0
LTYPE
  2
DASHDOT
 70
     0
  3
Dash dot __ . __ . __ . __ . __ . __ . __ . __
 72
    65
 73
     4
 40
1.0
 49
0.5
 49
-0.25
 49
0.0
 49
-0.25
  0
LTYPE
  2
DASHDOT2
 70
     0
  3
Dash dot (.5x) _._._._._._._._._._._._._._._.
 72
    65
 73
     4
 40
0.5
 49
0.25
 49
-0.125
 49
0.0
 49
-0.125
  0
LTYPE
  2
DASHDOTX2
 70
     0
  3
Dash dot (2x) ____  .  ____  .  ____  .  ___
 72
    65
 73
     4
 40
2.0
 49
1.0
 49
-0.5
 49
0.0
 49
-0.5
  0
LTYPE
  2
DASHED
 70
     0
  3
Dashed __ __ __ __ __ __ __ __ __ __ __ __ __ _
 72
    65
 73
     2
 40
0.75
 49
0.5
 49
-0.25
  0
LTYPE
  2
DASHED2
 70
     0
  3
Dashed (.5x) _ _ _ _ _ _ _ _ _ _ _ _ _ _ _ _ _
 72
    65
 73
     2
 40
0.375
 49
0.25
 49
-0.125
  0
LTYPE
  2
DASHEDX2
 70
     0
  3
Dashed (2x) ____  ____  ____  ____  ____  ___
 72
    65
 73
     2
 40
1.5
 49
1.0
 49
-0.5
  0
LTYPE
  2
DIVIDE
 70
     0
  3
Divide ____ . . ____ . . ____ . . ____ . . ____
 72
    65
 73
     6
 40
1.25
 49
0.5
 49
-0.25
 49
0.0
 49
-0.25
 49
0.0
 49
-0.25
  0
LTYPE
  2
DIVIDE2
 70
     0
  3
Divide (.5x) __..__..__..__..__..__..__..__.._
 72
    65
 73
     6
 40
0.625
 49
0.25
 49
-0.125
 49
0.0
 49
-0.125
 49
0.0
 49
-0.125
  0
LTYPE
  2
DIVIDEX2
 70
     0
  3
Divide (2x) ________  .  .  ________  .  .  _
 72
    65
 73
     6
 40
2.5
 49
1.0
 49
-0.5
 49
0.0
 49
-0.5
 49
0.0
 49
-0.5
  0
LTYPE
  2
DOT
 70
     0
  3
Dot . . . . . . . . . . . . . . . . . . . . . .
 72
    65
 73
     2
 40
0.25
 49
0.0
 49
-0.25
  0
LTYPE
  2
DOT2
 70
     0
  3
Dot (.5x) .....................................
 72
    65
 73
     2
 40
0.125
 49
0.0
 49
-0.125
  0
LTYPE
  2
DOTX2
 70
     0
  3
Dot (2x) .  .  .  .  .  .  .  .  .  .  .  .  . 
 72
    65
 73
     2
 40
0.5
 49
0.0
 49
-0.5
  0
LTYPE
  2
HIDDEN
 70
     0
  3
Hidden __ __ __ __ __ __ __ __ __ __ __ __ __ _
 72
    65
 73
     2
 40
0.375
 49
0.25
 49
-0.125
  0
LTYPE
  2
HIDDEN2
 70
     0
  3
Hidden (.5x) _ _ _ _ _ _ _ _ _ _ _ _ _ _ _ _ _
 72
    65
 73
     2
 40
0.1875
 49
0.125
 49
-0.0625
  0
LTYPE
  2
HIDDENX2
 70
     0
  3
Hidden (2x) ____ ____ ____ ____ ____ ____ ____
 72
    65
 73
     2
 40
0.75
 49
0.5
 49
-0.25
  0
LTYPE
  2
PHANTOM
 70
     0
  3
Phantom ______  __  __  ______  __  __  ______
 72
    65
 73
     6
 40
2.5
 49
1.25
 49
-0.25
 49
0.25
 49
-0.25
 49
0.25
 49
-0.25
  0
LTYPE
  2
PHANTOM2
 70
     0
  3
Phantom (.5x) ___ _ _ ___ _ _ ___ _ _ ___ _ _
 72
    65
 73
     6
 40
1.25
 49
0.625
 49
-0.125
 49
0.125
 49
-0.125
 49
0.125
 49
-0.125
  0
LTYPE
  2
PHANTOMX2
 70
     0
  3
Phantom (2x) ____________    ____    ____   _
 72
    65
 73
     6
 40
5.0
 49
2.5
 49
-0.5
 49
0.5
 49
-0.5
 49
0.5
 49
-0.5
  0
ENDTAB
  0
TABLE
  2
LAYER
 70
     3
  0
LAYER
  2
0
 70
     0
 62
     7
  6
CONTINUOUS
  0
LAYER
  2
PLAN
 70
     0
 62
     1
  6
CONTINUOUS
  0
LAYER
  2
WIRE
 70
     0
 62
     1
  6
CONTINUOUS
  0
ENDTAB
  0
TABLE
  2
STYLE
 70
    11
  0
STYLE
  2
STANDARD
 70
     0
 40
0.0
 41
1.0
 50
0.0
 71
     0
 42
0.0
  3
txt
  4

  0
STYLE
  2
TXT
 70
     0
 40
0.2
 41
1.0
 50
0.0
 71
     0
 42
0.2
  3
TXT
  4

  0
STYLE
  2
ROMANS
 70
     0
 40
0.2
 41
1.0
 50
0.0
 71
     0
 42
0.2
  3
ROMANS
  4

  0
STYLE
  2
ROMAND
 70
     0
 40
0.2
 41
1.0
 50
0.0
 71
     0
 42
0.2
  3
ROMAND
  4

  0
STYLE
  2
ROMANC
 70
     0
 40
0.2
 41
1.0
 50
0.0
 71
     0
 42
0.2
  3
ROMANC
  4

  0
STYLE
  2
ITALICC
 70
     0
 40
0.2
 41
1.0
 50
0.0
 71
     0
 42
0.2
  3
ITALICC
  4

  0
STYLE
  2
ROMANT
 70
     0
 40
0.2
 41
1.0
 50
0.0
 71
     0
 42
0.2
  3
ROMANT
  4

  0
STYLE
  2
ITALICT
 70
     0
 40
0.2
 41
1.0
 50
0.0
 71
     0
 42
0.2
  3
ITALICT
  4

  0
STYLE
  2
SCRIPTS
 70
     0
 40
0.2
 41
1.0
 50
0.0
 71
     0
 42
0.2
  3
SCRIPTS
  4

  0
STYLE
  2
SCRIPTC
 70
     0
 40
0.2
 41
1.0
 50
0.0
 71
     0
 42
0.2
  3
SCRIPTC
  4

  0
STYLE
  2
TXT
 70
     0
 40
0.2
 41
1.0
 50
0.0
 71
     0
 42
0.2
  3
TXT
  4

  0
ENDTAB
  0
TABLE
  2
VIEW
 70
     0
  0
ENDTAB
  0
TABLE
  2
UCS
 70
     0
  0
ENDTAB
  0
TABLE
  2
APPID
 70
     1
  0
APPID
  2
ACAD
 70
     0
  0
ENDTAB
  0
TABLE
  2
DIMSTYLE
 70
     1
  0
DIMSTYLE
  2
STANDARD
 70
     0
  3

  4

  5

  6

  7

 40
1.0
 41
0.18
 42
0.0625
 43
0.38
 44
0.18
 45
0.0
 46
0.0
 47
0.0
 48
0.0
140
0.18
141
0.09
142
0.0
143
25.4
144
1.0
145
0.0
146
1.0
147
0.09
 71
     0
 72
     0
 73
     1
 74
     1
 75
     0
 76
     0
 77
     0
 78
     0
170
     0
171
     2
172
     0
173
     0
174
     0
175
     0
176
     0
177
     0
178
     0
  0
ENDTAB
  0
ENDSEC
  0
SECTION
  2
BLOCKS
  0
BLOCK
  8
0
  5
69
  2
*D0
 70
    65
 10
0.0
 20
0.0
 30
0.0
  3

  0
LINE
  8
PLAN
  6
CONTINUOUS
 62
     5
  5
6A
 10
3.870144
 20
74.789335
 30
0.0
 11
3.870144
 21
89.696007
 31
0.0
  0
LINE
  8
PLAN
  6
CONTINUOUS
 62
     5
  5
6B
 10
73.870144
 20
74.789335
 30
0.0
 11
73.870144
 21
89.696007
 31
0.0
  0
LINE
  8
PLAN
  6
CONTINUOUS
 62
     5
  5
6C
 10
38.870144
 20
87.226563
 30
0.0
 11
3.870144
 21
87.226563
 31
0.0
  0
SOLID
  8
0
  6
CONTINUOUS
 62
     5
  5
6D
 10
3.870144
 20
87.226563
 30
0.0
 11
6.692366
 21
86.697396
 31
0.0
 12
3.870144
 22
87.226563
 32
0.0
 13
6.692366
 23
87.755729
 33
0.0
  0
LINE
  8
PLAN
  6
CONTINUOUS
 62
     5
  5
6E
 10
38.870144
 20
87.226563
 30
0.0
 11
73.870144
 21
87.226563
 31
0.0
  0
SOLID
  8
0
  6
CONTINUOUS
 62
     5
  5
6F
 10
73.870144
 20
87.226563
 30
0.0
 11
71.047921
 21
87.755729
 31
0.0
 12
73.870144
 22
87.226563
 32
0.0
 13
71.047921
 23
86.697396
 33
0.0
  0
TEXT
  8
PLAN
  6
CONTINUOUS
 62
     8
  5
70
 10
36.628672
 20
88.531056
 30
0.0
 40
3.951111
  1
70
  7
TXT
  0
POINT
  8
PLAN
  6
CONTINUOUS
 62
     5
  5
71
 10
3.870144
 20
72.31989
 30
0.0
  0
POINT
  8
PLAN
  6
CONTINUOUS
 62
     5
  5
72
 10
73.870144
 20
72.31989
 30
0.0
  0
POINT
  8
PLAN
  6
CONTINUOUS
 62
     5
  5
73
 10
38.870144
 20
87.226563
 30
0.0
  0
ENDBLK
  8
PLAN
  5
74
  0
BLOCK
  8
0
  5
75
  2
*D1
 70
    65
 10
0.0
 20
0.0
 30
0.0
  3

  0
LINE
  8
PLAN
  6
CONTINUOUS
 62
     5
  5
76
 10
0.870144
 20
52.789335
 30
0.0
 11
0.870144
 21
89.696007
 31
0.0
  0
LINE
  8
PLAN
  6
CONTINUOUS
 62
     5
  5
77
 10
3.870144
 20
74.789335
 30
0.0
 11
3.870144
 21
89.696007
 31
0.0
  0
LINE
  8
PLAN
  6
CONTINUOUS
 62
     5
  5
78
 10
0.870144
 20
87.226563
 30
0.0
 11
3.870144
 21
87.226563
 31
0.0
  0
LINE
  8
PLAN
  6
CONTINUOUS
 62
     5
  5
79
 10
-9.938923
 20
87.226563
 30
0.0
 11
0.870144
 21
87.226563
 31
0.0
  0
SOLID
  8
0
  6
CONTINUOUS
 62
     5
  5
7A
 10
0.870144
 20
87.226563
 30
0.0
 11
-1.952079
 21
87.755729
 31
0.0
 12
0.870144
 22
87.226563
 32
0.0
 13
-1.952079
 23
86.697396
 33
0.0
  0
LINE
  8
PLAN
  6
CONTINUOUS
 62
     5
  5
7B
 10
10.043755
 20
87.226563
 30
0.0
 11
3.870144
 21
87.226563
 31
0.0
  0
SOLID
  8
0
  6
CONTINUOUS
 62
     5
  5
7C
 10
3.870144
 20
87.226563
 30
0.0
 11
6.692366
 21
86.697396
 31
0.0
 12
3.870144
 22
87.226563
 32
0.0
 13
6.692366
 23
87.755729
 33
0.0
  0
TEXT
  8
PLAN
  6
CONTINUOUS
 62
     8
  5
7D
 10
-9.723807
 20
88.531056
 30
0.0
 40
3.951111
  1
3
  7
TXT
  0
POINT
  8
PLAN
  6
CONTINUOUS
 62
     5
  5
7E
 10
0.870144
 20
50.31989
 30
0.0
  0
POINT
  8
PLAN
  6
CONTINUOUS
 62
     5
  5
7F
 10
3.870144
 20
72.31989
 30
0.0
  0
POINT
  8
PLAN
  6
CONTINUOUS
 62
     5
  5
80
 10
-8.736656
 20
87.226563
 30
0.0
  0
ENDBLK
  8
PLAN
  5
81
  0
BLOCK
  8
0
  5
82
  2
*D2
 70
    65
 10
0.0
 20
0.0
 30
0.0
  3

  0
LINE
  8
PLAN
  6
CONTINUOUS
 62
     5
  5
83
 10
36.400699
 20
50.31989
 30
0.0
 11
34.538368
 21
50.31989
 31
0.0
  0
LINE
  8
PLAN
  6
CONTINUOUS
 62
     5
  5
84
 10
36.400699
 20
83.31989
 30
0.0
 11
34.538368
 21
83.31989
 31
0.0
  0
LINE
  8
PLAN
  6
CONTINUOUS
 62
     5
  5
85
 10
37.007813
 20
66.81989
 30
0.0
 11
37.007813
 21
50.31989
 31
0.0
  0
SOLID
  8
0
  6
CONTINUOUS
 62
     5
  5
86
 10
37.007813
 20
50.31989
 30
0.0
 11
37.536979
 21
53.142112
 31
0.0
 12
37.007813
 22
50.31989
 32
0.0
 13
36.478646
 23
53.142112
 33
0.0
  0
LINE
  8
PLAN
  6
CONTINUOUS
 62
     5
  5
87
 10
37.007813
 20
66.81989
 30
0.0
 11
37.007813
 21
83.31989
 31
0.0
  0
SOLID
  8
0
  6
CONTINUOUS
 62
     5
  5
88
 10
37.007813
 20
83.31989
 30
0.0
 11
36.478646
 21
80.497668
 31
0.0
 12
37.007813
 22
83.31989
 32
0.0
 13
37.536979
 23
80.497668
 33
0.0
  0
TEXT
  8
PLAN
  6
CONTINUOUS
 62
     8
  5
89
 10
35.703319
 20
64.578419
 30
0.0
 40
3.951111
  1
33
 50
90.0
  7
TXT
  0
POINT
  8
PLAN
  6
CONTINUOUS
 62
     5
  5
8A
 10
38.870144
 20
50.31989
 30
0.0
  0
POINT
  8
PLAN
  6
CONTINUOUS
 62
     5
  5
8B
 10
38.870144
 20
83.31989
 30
0.0
  0
POINT
  8
PLAN
  6
CONTINUOUS
 62
     5
  5
8C
 10
37.007813
 20
66.81989
 30
0.0
  0
ENDBLK
  8
PLAN
  5
8D
  0
BLOCK
  8
0
  5
8E
  2
*D3
 70
    65
 10
0.0
 20
0.0
 30
0.0
  3

  0
LINE
  8
PLAN
  6
CONTINUOUS
 62
     5
  5
8F
 10
-1.599301
 20
50.31989
 30
0.0
 11
-8.117882
 21
50.31989
 31
0.0
  0
LINE
  8
PLAN
  6
CONTINUOUS
 62
     5
  5
90
 10
1.400699
 20
72.31989
 30
0.0
 11
-8.117882
 21
72.31989
 31
0.0
  0
LINE
  8
PLAN
  6
CONTINUOUS
 62
     5
  5
91
 10
-5.648437
 20
61.31989
 30
0.0
 11
-5.648437
 21
50.31989
 31
0.0
  0
SOLID
  8
0
  6
CONTINUOUS
 62
     5
  5
92
 10
-5.648437
 20
50.31989
 30
0.0
 11
-5.119271
 21
53.142112
 31
0.0
 12
-5.648437
 22
50.31989
 32
0.0
 13
-6.177604
 23
53.142112
 33
0.0
  0
LINE
  8
PLAN
  6
CONTINUOUS
 62
     5
  5
93
 10
-5.648437
 20
61.31989
 30
0.0
 11
-5.648437
 21
72.31989
 31
0.0
  0
SOLID
  8
0
  6
CONTINUOUS
 62
     5
  5
94
 10
-5.648437
 20
72.31989
 30
0.0
 11
-6.177604
 21
69.497668
 31
0.0
 12
-5.648437
 22
72.31989
 32
0.0
 13
-5.119271
 23
69.497668
 33
0.0
  0
TEXT
  8
PLAN
  6
CONTINUOUS
 62
     8
  5
95
 10
-6.952931
 20
59.078419
 30
0.0
 40
3.951111
  1
22
 50
90.0
  7
TXT
  0
POINT
  8
PLAN
  6
CONTINUOUS
 62
     5
  5
96
 10
0.870144
 20
50.31989
 30
0.0
  0
POINT
  8
PLAN
  6
CONTINUOUS
 62
     5
  5
97
 10
3.870144
 20
72.31989
 30
0.0
  0
POINT
  8
PLAN
  6
CONTINUOUS
 62
     5
  5
98
 10
-5.648437
 20
61.31989
 30
0.0
  0
ENDBLK
  8
PLAN
  5
99
  0
BLOCK
  8
0
  5
9A
  2
*D4
 70
    65
 10
0.0
 20
0.0
 30
0.0
  3

  0
LINE
  8
PLAN
  6
CONTINUOUS
 62
     5
  5
9B
 10
77.740015
 20
35.158361
 30
0.0
 11
70.358681
 21
35.158361
 31
0.0
  0
LINE
  8
PLAN
  6
CONTINUOUS
 62
     5
  5
9C
 10
80.740015
 20
-4.841639
 30
0.0
 11
70.358681
 21
-4.841639
 31
0.0
  0
LINE
  8
PLAN
  6
CONTINUOUS
 62
     5
  5
9D
 10
72.828125
 20
15.158361
 30
0.0
 11
72.828125
 21
35.158361
 31
0.0
  0
SOLID
  8
0
  6
CONTINUOUS
 62
     5
  5
9E
 10
72.828125
 20
35.158361
 30
0.0
 11
72.298958
 21
32.336139
 31
0.0
 12
72.828125
 22
35.158361
 32
0.0
 13
73.357292
 23
32.336139
 33
0.0
  0
LINE
  8
PLAN
  6
CONTINUOUS
 62
     5
  5
9F
 10
72.828125
 20
15.158361
 30
0.0
 11
72.828125
 21
-4.841639
 31
0.0
  0
SOLID
  8
0
  6
CONTINUOUS
 62
     5
  5
A0
 10
72.828125
 20
-4.841639
 30
0.0
 11
73.357292
 21
-2.019416
 31
0.0
 12
72.828125
 22
-4.841639
 32
0.0
 13
72.298958
 23
-2.019416
 33
0.0
  0
TEXT
  8
PLAN
  6
CONTINUOUS
 62
     8
  5
A1
 10
71.523631
 20
12.91689
 30
0.0
 40
3.951111
  1
40
 50
90.0
  7
TXT
  0
POINT
  8
PLAN
  6
CONTINUOUS
 62
     5
  5
A2
 10
80.209459
 20
35.158361
 30
0.0
  0
POINT
  8
PLAN
  6
CONTINUOUS
 62
     5
  5
A3
 10
83.209459
 20
-4.841639
 30
0.0
  0
POINT
  8
PLAN
  6
CONTINUOUS
 62
     5
  5
A4
 10
72.828125
 20
15.158361
 30
0.0
  0
ENDBLK
  8
PLAN
  5
A5
  0
BLOCK
  8
0
  5
A6
  2
*D5
 70
    65
 10
0.0
 20
0.0
 30
0.0
  3

  0
LINE
  8
PLAN
  6
CONTINUOUS
 62
     5
  5
A7
 10
30.740015
 20
40.158361
 30
0.0
 11
23.874306
 21
40.158361
 31
0.0
  0
LINE
  8
PLAN
  6
CONTINUOUS
 62
     5
  5
A8
 10
30.740015
 20
-10.841639
 30
0.0
 11
23.874306
 21
-10.841639
 31
0.0
  0
LINE
  8
PLAN
  6
CONTINUOUS
 62
     5
  5
A9
 10
26.34375
 20
14.658361
 30
0.0
 11
26.34375
 21
40.158361
 31
0.0
  0
SOLID
  8
0
  6
CONTINUOUS
 62
     5
  5
AA
 10
26.34375
 20
40.158361
 30
0.0
 11
25.814583
 21
37.336139
 31
0.0
 12
26.34375
 22
40.158361
 32
0.0
 13
26.872917
 23
37.336139
 33
0.0
  0
LINE
  8
PLAN
  6
CONTINUOUS
 62
     5
  5
AB
 10
26.34375
 20
14.658361
 30
0.0
 11
26.34375
 21
-10.841639
 31
0.0
  0
SOLID
  8
0
  6
CONTINUOUS
 62
     5
  5
AC
 10
26.34375
 20
-10.841639
 30
0.0
 11
26.872917
 21
-8.019416
 31
0.0
 12
26.34375
 22
-10.841639
 32
0.0
 13
25.814583
 23
-8.019416
 33
0.0
  0
TEXT
  8
PLAN
  6
CONTINUOUS
 62
     8
  5
AD
 10
25.039256
 20
12.41689
 30
0.0
 40
3.951111
  1
51
 50
90.0
  7
TXT
  0
POINT
  8
PLAN
  6
CONTINUOUS
 62
     5
  5
AE
 10
33.209459
 20
40.158361
 30
0.0
  0
POINT
  8
PLAN
  6
CONTINUOUS
 62
     5
  5
AF
 10
33.209459
 20
-10.841639
 30
0.0
  0
POINT
  8
PLAN
  6
CONTINUOUS
 62
     5
  5
B0
 10
26.34375
 20
14.658361
 30
0.0
  0
ENDBLK
  8
PLAN
  5
B1
  0
BLOCK
  8
0
  5
B2
  2
*D6
 70
    65
 10
0.0
 20
0.0
 30
0.0
  3

  0
LINE
  8
PLAN
  6
CONTINUOUS
 62
     5
  5
B3
 10
-71.259985
 20
-10.841639
 30
0.0
 11
-121.047569
 21
-10.841639
 31
0.0
  0
LINE
  8
PLAN
  6
CONTINUOUS
 62
     5
  5
B4
 10
-116.321096
 20
-4.841639
 30
0.0
 11
-116.108681
 21
-4.841639
 31
0.0
  0
LINE
  8
PLAN
  6
CONTINUOUS
 62
     5
  5
B5
 10
-118.578125
 20
-10.841639
 30
0.0
 11
-118.578125
 21
-4.841639
 31
0.0
  0
LINE
  8
PLAN
  6
CONTINUOUS
 62
     5
  5
B6
 10
-118.578125
 20
-21.650705
 30
0.0
 11
-118.578125
 21
-10.841639
 31
0.0
  0
SOLID
  8
0
  6
CONTINUOUS
 62
     5
  5
B7
 10
-118.578125
 20
-10.841639
 30
0.0
 11
-119.107292
 21
-13.663861
 31
0.0
 12
-118.578125
 22
-10.841639
 32
0.0
 13
-118.048958
 23
-13.663861
 33
0.0
  0
LINE
  8
PLAN
  6
CONTINUOUS
 62
     5
  5
B8
 10
-118.578125
 20
1.331973
 30
0.0
 11
-118.578125
 21
-4.841639
 31
0.0
  0
SOLID
  8
0
  6
CONTINUOUS
 62
     5
  5
B9
 10
-118.578125
 20
-4.841639
 30
0.0
 11
-118.048958
 21
-2.019416
 31
0.0
 12
-118.578125
 22
-4.841639
 32
0.0
 13
-119.107292
 23
-2.019416
 33
0.0
  0
TEXT
  8
PLAN
  6
CONTINUOUS
 62
     8
  5
BA
 10
-119.882619
 20
-21.435589
 30
0.0
 40
3.951111
  1
6
 50
90.0
  7
TXT
  0
POINT
  8
PLAN
  6
CONTINUOUS
 62
     5
  5
BB
 10
-68.790541
 20
-10.841639
 30
0.0
  0
POINT
  8
PLAN
  6
CONTINUOUS
 62
     5
  5
BC
 10
-118.790541
 20
-4.841639
 30
0.0
  0
POINT
  8
PLAN
  6
CONTINUOUS
 62
     5
  5
BD
 10
-118.578125
 20
-20.448438
 30
0.0
  0
ENDBLK
  8
PLAN
  5
BE
  0
BLOCK
  8
0
  5
BF
  2
*D7
 70
    65
 10
0.0
 20
0.0
 30
0.0
  3

  0
LINE
  8
PLAN
  6
CONTINUOUS
 62
     5
  5
C0
 10
-118.790541
 20
-2.372194
 30
0.0
 11
-118.790541
 21
49.500694
 31
0.0
  0
LINE
  8
PLAN
  6
CONTINUOUS
 62
     5
  5
C1
 10
-115.790541
 20
37.627806
 30
0.0
 11
-115.790541
 21
49.500694
 31
0.0
  0
LINE
  8
PLAN
  6
CONTINUOUS
 62
     5
  5
C2
 10
-124.434985
 20
47.03125
 30
0.0
 11
-118.790541
 21
47.03125
 31
0.0
  0
SOLID
  8
0
  6
CONTINUOUS
 62
     5
  5
C3
 10
-118.790541
 20
47.03125
 30
0.0
 11
-121.612763
 21
47.560417
 31
0.0
 12
-118.790541
 22
47.03125
 32
0.0
 13
-121.612763
 23
46.502083
 33
0.0
  0
LINE
  8
PLAN
  6
CONTINUOUS
 62
     5
  5
C4
 10
-110.146096
 20
47.03125
 30
0.0
 11
-115.790541
 21
47.03125
 31
0.0
  0
SOLID
  8
0
  6
CONTINUOUS
 62
     5
  5
C5
 10
-115.790541
 20
47.03125
 30
0.0
 11
-112.968318
 21
46.502083
 31
0.0
 12
-115.790541
 22
47.03125
 32
0.0
 13
-112.968318
 23
47.560417
 33
0.0
  0
TEXT
  8
PLAN
  6
CONTINUOUS
 62
     8
  5
C6
 10
-118.277691
 20
48.335744
 30
0.0
 40
3.951111
  1
3
  7
TXT
  0
POINT
  8
PLAN
  6
CONTINUOUS
 62
     5
  5
C7
 10
-118.790541
 20
-4.841639
 30
0.0
  0
POINT
  8
PLAN
  6
CONTINUOUS
 62
     5
  5
C8
 10
-115.790541
 20
35.158361
 30
0.0
  0
POINT
  8
PLAN
  6
CONTINUOUS
 62
     5
  5
C9
 10
-117.290541
 20
47.03125
 30
0.0
  0
ENDBLK
  8
PLAN
  5
CA
  0
BLOCK
  8
0
  5
CB
  2
*D8
 70
    65
 10
0.0
 20
0.0
 30
0.0
  3

  0
LINE
  8
PLAN
  6
CONTINUOUS
 62
     5
  5
CC
 10
-115.790541
 20
37.627806
 30
0.0
 11
-115.790541
 21
49.500694
 31
0.0
  0
LINE
  8
PLAN
  6
CONTINUOUS
 62
     5
  5
CD
 10
-68.790541
 20
42.627806
 30
0.0
 11
-68.790541
 21
49.500694
 31
0.0
  0
LINE
  8
PLAN
  6
CONTINUOUS
 62
     5
  5
CE
 10
-92.290541
 20
47.03125
 30
0.0
 11
-115.790541
 21
47.03125
 31
0.0
  0
SOLID
  8
0
  6
CONTINUOUS
 62
     5
  5
CF
 10
-115.790541
 20
47.03125
 30
0.0
 11
-112.968318
 21
46.502083
 31
0.0
 12
-115.790541
 22
47.03125
 32
0.0
 13
-112.968318
 23
47.560417
 33
0.0
  0
LINE
  8
PLAN
  6
CONTINUOUS
 62
     5
  5
D0
 10
-92.290541
 20
47.03125
 30
0.0
 11
-68.790541
 21
47.03125
 31
0.0
  0
SOLID
  8
0
  6
CONTINUOUS
 62
     5
  5
D1
 10
-68.790541
 20
47.03125
 30
0.0
 11
-71.612763
 21
47.560417
 31
0.0
 12
-68.790541
 22
47.03125
 32
0.0
 13
-71.612763
 23
46.502083
 33
0.0
  0
TEXT
  8
PLAN
  6
CONTINUOUS
 62
     8
  5
D2
 10
-94.532012
 20
48.335744
 30
0.0
 40
3.951111
  1
47
  7
TXT
  0
POINT
  8
PLAN
  6
CONTINUOUS
 62
     5
  5
D3
 10
-115.790541
 20
35.158361
 30
0.0
  0
POINT
  8
PLAN
  6
CONTINUOUS
 62
     5
  5
D4
 10
-68.790541
 20
40.158361
 30
0.0
  0
POINT
  8
PLAN
  6
CONTINUOUS
 62
     5
  5
D5
 10
-92.290541
 20
47.03125
 30
0.0
  0
ENDBLK
  8
PLAN
  5
D6
  0
BLOCK
  8
0
  5
D7
  2
*D9
 70
    65
 10
0.0
 20
0.0
 30
0.0
  3

  0
LINE
  8
PLAN
  6
CONTINUOUS
 62
     5
  5
D8
 10
-68.790541
 20
42.627806
 30
0.0
 11
-68.790541
 21
49.500694
 31
0.0
  0
LINE
  8
PLAN
  6
CONTINUOUS
 62
     5
  5
D9
 10
-17.790541
 20
46.884563
 30
0.0
 11
-17.790541
 21
49.500694
 31
0.0
  0
LINE
  8
PLAN
  6
CONTINUOUS
 62
     5
  5
DA
 10
-43.290541
 20
47.03125
 30
0.0
 11
-68.790541
 21
47.03125
 31
0.0
  0
SOLID
  8
0
  6
CONTINUOUS
 62
     5
  5
DB
 10
-68.790541
 20
47.03125
 30
0.0
 11
-65.968318
 21
46.502083
 31
0.0
 12
-68.790541
 22
47.03125
 32
0.0
 13
-65.968318
 23
47.560417
 33
0.0
  0
LINE
  8
PLAN
  6
CONTINUOUS
 62
     5
  5
DC
 10
-43.290541
 20
47.03125
 30
0.0
 11
-17.790541
 21
47.03125
 31
0.0
  0
SOLID
  8
0
  6
CONTINUOUS
 62
     5
  5
DD
 10
-17.790541
 20
47.03125
 30
0.0
 11
-20.612763
 21
47.560417
 31
0.0
 12
-17.790541
 22
47.03125
 32
0.0
 13
-20.612763
 23
46.502083
 33
0.0
  0
TEXT
  8
PLAN
  6
CONTINUOUS
 62
     8
  5
DE
 10
-45.532012
 20
48.335744
 30
0.0
 40
3.951111
  1
51
  7
TXT
  0
POINT
  8
PLAN
  6
CONTINUOUS
 62
     5
  5
DF
 10
-68.790541
 20
40.158361
 30
0.0
  0
POINT
  8
PLAN
  6
CONTINUOUS
 62
     5
  5
E0
 10
-17.790541
 20
44.415118
 30
0.0
  0
POINT
  8
PLAN
  6
CONTINUOUS
 62
     5
  5
E1
 10
-43.290541
 20
47.03125
 30
0.0
  0
ENDBLK
  8
PLAN
  5
E2
  0
BLOCK
  8
0
  5
E3
  2
*D10
 70
    65
 10
0.0
 20
0.0
 30
0.0
  3

  0
LINE
  8
PLAN
  6
CONTINUOUS
 62
     5
  5
E4
 10
-107.573846
 20
-28.663233
 30
0.0
 11
-107.573846
 21
-24.785173
 31
0.0
  0
LINE
  8
PLAN
  6
CONTINUOUS
 62
     5
  5
E5
 10
-91.573846
 20
-30.107027
 30
0.0
 11
-91.573846
 21
-24.785173
 31
0.0
  0
LINE
  8
PLAN
  6
CONTINUOUS
 62
     5
  5
E6
 10
-99.573846
 20
-27.254617
 30
0.0
 11
-107.573846
 21
-27.254617
 31
0.0
  0
SOLID
  8
0
  6
CONTINUOUS
 62
     5
  5
E7
 10
-107.573846
 20
-27.254617
 30
0.0
 11
-104.751623
 21
-27.783784
 31
0.0
 12
-107.573846
 22
-27.254617
 32
0.0
 13
-104.751623
 23
-26.725451
 33
0.0
  0
LINE
  8
PLAN
  6
CONTINUOUS
 62
     5
  5
E8
 10
-99.573846
 20
-27.254617
 30
0.0
 11
-91.573846
 21
-27.254617
 31
0.0
  0
SOLID
  8
0
  6
CONTINUOUS
 62
     5
  5
E9
 10
-91.573846
 20
-27.254617
 30
0.0
 11
-94.396068
 21
-26.725451
 31
0.0
 12
-91.573846
 22
-27.254617
 32
0.0
 13
-94.396068
 23
-27.783784
 33
0.0
  0
TEXT
  8
PLAN
  6
CONTINUOUS
 62
     8
  5
EA
 10
-101.815317
 20
-25.950124
 30
0.0
 40
3.951111
  1
16
  7
TXT
  0
POINT
  8
PLAN
  6
CONTINUOUS
 62
     5
  5
EB
 10
-107.573846
 20
-31.132677
 30
0.0
  0
POINT
  8
PLAN
  6
CONTINUOUS
 62
     5
  5
EC
 10
-91.573846
 20
-32.576472
 30
0.0
  0
POINT
  8
PLAN
  6
CONTINUOUS
 62
     5
  5
ED
 10
-99.573846
 20
-27.254617
 30
0.0
  0
ENDBLK
  8
PLAN
  5
EE
  0
BLOCK
  8
0
  5
EF
  2
*D11
 70
    65
 10
0.0
 20
0.0
 30
0.0
  3

  0
LINE
  8
PLAN
  6
CONTINUOUS
 62
     5
  5
F0
 10
-91.573846
 20
-30.107027
 30
0.0
 11
-91.573846
 21
-24.785173
 31
0.0
  0
LINE
  8
PLAN
  6
CONTINUOUS
 62
     5
  5
F1
 10
-58.731886
 20
-56.769065
 30
0.0
 11
-58.731886
 21
-24.785173
 31
0.0
  0
LINE
  8
PLAN
  6
CONTINUOUS
 62
     5
  5
F2
 10
-75.152866
 20
-27.254617
 30
0.0
 11
-91.573846
 21
-27.254617
 31
0.0
  0
SOLID
  8
0
  6
CONTINUOUS
 62
     5
  5
F3
 10
-91.573846
 20
-27.254617
 30
0.0
 11
-88.751623
 21
-27.783784
 31
0.0
 12
-91.573846
 22
-27.254617
 32
0.0
 13
-88.751623
 23
-26.725451
 33
0.0
  0
LINE
  8
PLAN
  6
CONTINUOUS
 62
     5
  5
F4
 10
-75.152866
 20
-27.254617
 30
0.0
 11
-58.731886
 21
-27.254617
 31
0.0
  0
SOLID
  8
0
  6
CONTINUOUS
 62
     5
  5
F5
 10
-58.731886
 20
-27.254617
 30
0.0
 11
-61.554108
 21
-26.725451
 31
0.0
 12
-58.731886
 22
-27.254617
 32
0.0
 13
-61.554108
 23
-27.783784
 33
0.0
  0
TEXT
  8
PLAN
  6
CONTINUOUS
 62
     8
  5
F6
 10
-77.394337
 20
-25.950124
 30
0.0
 40
3.951111
  1
33
  7
TXT
  0
POINT
  8
PLAN
  6
CONTINUOUS
 62
     5
  5
F7
 10
-91.573846
 20
-32.576472
 30
0.0
  0
POINT
  8
PLAN
  6
CONTINUOUS
 62
     5
  5
F8
 10
-58.731886
 20
-59.23851
 30
0.0
  0
POINT
  8
PLAN
  6
CONTINUOUS
 62
     5
  5
F9
 10
-75.152866
 20
-27.254617
 30
0.0
  0
ENDBLK
  8
PLAN
  5
FA
  0
BLOCK
  8
0
  5
FB
  2
*D12
 70
    65
 10
0.0
 20
0.0
 30
0.0
  3

  0
LINE
  8
PLAN
  6
CONTINUOUS
 62
     5
  5
FC
 10
-110.04329
 20
-58.734335
 30
0.0
 11
-112.238814
 21
-58.734335
 31
0.0
  0
LINE
  8
PLAN
  6
CONTINUOUS
 62
     5
  5
FD
 10
-110.04329
 20
-31.132677
 30
0.0
 11
-112.238814
 21
-31.132677
 31
0.0
  0
LINE
  8
PLAN
  6
CONTINUOUS
 62
     5
  5
FE
 10
-109.769369
 20
-44.933506
 30
0.0
 11
-109.769369
 21
-58.734335
 31
0.0
  0
SOLID
  8
0
  6
CONTINUOUS
 62
     5
  5
FF
 10
-109.769369
 20
-58.734335
 30
0.0
 11
-109.240203
 21
-55.912112
 31
0.0
 12
-109.769369
 22
-58.734335
 32
0.0
 13
-110.298536
 23
-55.912112
 33
0.0
  0
LINE
  8
PLAN
  6
CONTINUOUS
 62
     5
  5
100
 10
-109.769369
 20
-44.933506
 30
0.0
 11
-109.769369
 21
-31.132677
 31
0.0
  0
SOLID
  8
0
  6
CONTINUOUS
 62
     5
  5
101
 10
-109.769369
 20
-31.132677
 30
0.0
 11
-110.298536
 21
-33.9549
 31
0.0
 12
-109.769369
 22
-31.132677
 32
0.0
 13
-109.240203
 23
-33.9549
 33
0.0
  0
TEXT
  8
PLAN
  6
CONTINUOUS
 62
     8
  5
102
 10
-111.073863
 20
-47.174978
 30
0.0
 40
3.951111
  1
28
 50
90.0
  7
TXT
  0
POINT
  8
PLAN
  6
CONTINUOUS
 62
     5
  5
103
 10
-107.573846
 20
-58.734335
 30
0.0
  0
POINT
  8
PLAN
  6
CONTINUOUS
 62
     5
  5
104
 10
-107.573846
 20
-31.132677
 30
0.0
  0
POINT
  8
PLAN
  6
CONTINUOUS
 62
     5
  5
105
 10
-109.769369
 20
-44.933506
 30
0.0
  0
ENDBLK
  8
PLAN
  5
106
  0
BLOCK
  8
0
  5
107
  2
*D13
 70
    65
 10
0.0
 20
0.0
 30
0.0
  3

  0
LINE
  8
PLAN
  6
CONTINUOUS
 62
     5
  5
108
 10
98.308061
 20
-60.200141
 30
0.0
 11
96.703331
 21
-60.200141
 31
0.0
  0
LINE
  8
PLAN
  6
CONTINUOUS
 62
     5
  5
109
 10
98.308061
 20
-50.200141
 30
0.0
 11
96.703331
 21
-50.200141
 31
0.0
  0
LINE
  8
PLAN
  6
CONTINUOUS
 62
     5
  5
10A
 10
99.172776
 20
-55.200141
 30
0.0
 11
99.172776
 21
-60.200141
 31
0.0
  0
SOLID
  8
0
  6
CONTINUOUS
 62
     5
  5
10B
 10
99.172776
 20
-60.200141
 30
0.0
 11
99.701943
 21
-57.377919
 31
0.0
 12
99.172776
 22
-60.200141
 32
0.0
 13
98.643609
 23
-57.377919
 33
0.0
  0
LINE
  8
PLAN
  6
CONTINUOUS
 62
     5
  5
10C
 10
99.172776
 20
-55.200141
 30
0.0
 11
99.172776
 21
-50.200141
 31
0.0
  0
SOLID
  8
0
  6
CONTINUOUS
 62
     5
  5
10D
 10
99.172776
 20
-50.200141
 30
0.0
 11
98.643609
 21
-53.022363
 31
0.0
 12
99.172776
 22
-50.200141
 32
0.0
 13
99.701943
 23
-53.022363
 33
0.0
  0
TEXT
  8
PLAN
  6
CONTINUOUS
 62
     8
  5
10E
 10
97.868282
 20
-57.441613
 30
0.0
 40
3.951111
  1
10
 50
90.0
  7
TXT
  0
POINT
  8
PLAN
  6
CONTINUOUS
 62
     5
  5
10F
 10
100.777506
 20
-60.200141
 30
0.0
  0
POINT
  8
PLAN
  6
CONTINUOUS
 62
     5
  5
110
 10
100.777506
 20
-50.200141
 30
0.0
  0
POINT
  8
PLAN
  6
CONTINUOUS
 62
     5
  5
111
 10
99.172776
 20
-55.200141
 30
0.0
  0
ENDBLK
  8
PLAN
  5
112
  0
BLOCK
  8
0
  5
113
  2
*D14
 70
    65
 10
0.0
 20
0.0
 30
0.0
  3

  0
LINE
  8
PLAN
  6
CONTINUOUS
 62
     5
  5
114
 10
34.426154
 20
-46.130697
 30
0.0
 11
34.426154
 21
-41.082048
 31
0.0
  0
LINE
  8
PLAN
  6
CONTINUOUS
 62
     5
  5
115
 10
54.426154
 20
-48.74421
 30
0.0
 11
54.426154
 21
-41.082048
 31
0.0
  0
LINE
  8
PLAN
  6
CONTINUOUS
 62
     5
  5
116
 10
44.426154
 20
-43.551492
 30
0.0
 11
34.426154
 21
-43.551492
 31
0.0
  0
SOLID
  8
0
  6
CONTINUOUS
 62
     5
  5
117
 10
34.426154
 20
-43.551492
 30
0.0
 11
37.248377
 21
-44.080659
 31
0.0
 12
34.426154
 22
-43.551492
 32
0.0
 13
37.248377
 23
-43.022326
 33
0.0
  0
LINE
  8
PLAN
  6
CONTINUOUS
 62
     5
  5
118
 10
44.426154
 20
-43.551492
 30
0.0
 11
54.426154
 21
-43.551492
 31
0.0
  0
SOLID
  8
0
  6
CONTINUOUS
 62
     5
  5
119
 10
54.426154
 20
-43.551492
 30
0.0
 11
51.603932
 21
-43.022326
 31
0.0
 12
54.426154
 22
-43.551492
 32
0.0
 13
51.603932
 23
-44.080659
 33
0.0
  0
TEXT
  8
PLAN
  6
CONTINUOUS
 62
     8
  5
11A
 10
42.184683
 20
-42.246999
 30
0.0
 40
3.951111
  1
20
  7
TXT
  0
POINT
  8
PLAN
  6
CONTINUOUS
 62
     5
  5
11B
 10
34.426154
 20
-48.600141
 30
0.0
  0
POINT
  8
PLAN
  6
CONTINUOUS
 62
     5
  5
11C
 10
54.426154
 20
-51.213655
 30
0.0
  0
POINT
  8
PLAN
  6
CONTINUOUS
 62
     5
  5
11D
 10
44.426154
 20
-43.551492
 30
0.0
  0
ENDBLK
  8
PLAN
  5
11E
  0
BLOCK
  8
0
  5
11F
  2
*D15
 70
    65
 10
0.0
 20
0.0
 30
0.0
  3

  0
LINE
  8
PLAN
  6
CONTINUOUS
 62
     5
  5
120
 10
34.426154
 20
-46.130697
 30
0.0
 11
34.426154
 21
-31.149616
 31
0.0
  0
LINE
  8
PLAN
  6
CONTINUOUS
 62
     5
  5
121
 10
129.423231
 20
-52.901649
 30
0.0
 11
129.423231
 21
-31.149616
 31
0.0
  0
LINE
  8
PLAN
  6
CONTINUOUS
 62
     5
  5
122
 10
81.924693
 20
-33.61906
 30
0.0
 11
34.426154
 21
-33.61906
 31
0.0
  0
SOLID
  8
0
  6
CONTINUOUS
 62
     5
  5
123
 10
34.426154
 20
-33.61906
 30
0.0
 11
37.248377
 21
-34.148227
 31
0.0
 12
34.426154
 22
-33.61906
 32
0.0
 13
37.248377
 23
-33.089893
 33
0.0
  0
LINE
  8
PLAN
  6
CONTINUOUS
 62
     5
  5
124
 10
81.924693
 20
-33.61906
 30
0.0
 11
129.423231
 21
-33.61906
 31
0.0
  0
SOLID
  8
0
  6
CONTINUOUS
 62
     5
  5
125
 10
129.423231
 20
-33.61906
 30
0.0
 11
126.601009
 21
-33.089893
 31
0.0
 12
129.423231
 22
-33.61906
 32
0.0
 13
126.601009
 23
-34.148227
 33
0.0
  0
TEXT
  8
PLAN
  6
CONTINUOUS
 62
     8
  5
126
 10
76.782604
 20
-32.314566
 30
0.0
 40
3.951111
  1
95.0 
  7
TXT
  0
POINT
  8
PLAN
  6
CONTINUOUS
 62
     5
  5
127
 10
34.426154
 20
-48.600141
 30
0.0
  0
POINT
  8
PLAN
  6
CONTINUOUS
 62
     5
  5
128
 10
129.423231
 20
-55.371094
 30
0.0
  0
POINT
  8
PLAN
  6
CONTINUOUS
 62
     5
  5
129
 10
81.924693
 20
-33.61906
 30
0.0
  0
ENDBLK
  8
PLAN
  5
12A
  0
BLOCK
  8
0
  5
12B
  2
*D16
 70
    65
 10
0.0
 20
0.0
 30
0.0
  3

  0
LINE
  8
PLAN
  6
CONTINUOUS
 62
     5
  5
12C
 10
-120.573846
 20
-62.669586
 30
0.0
 11
-120.573846
 21
-94.344444
 31
0.0
  0
LINE
  8
PLAN
  6
CONTINUOUS
 62
     5
  5
12D
 10
129.423231
 20
-57.840538
 30
0.0
 11
129.423231
 21
-94.344444
 31
0.0
  0
LINE
  8
PLAN
  6
CONTINUOUS
 62
     5
  5
12E
 10
4.424693
 20
-91.875
 30
0.0
 11
-120.573846
 21
-91.875
 31
0.0
  0
SOLID
  8
0
  6
CONTINUOUS
 62
     5
  5
12F
 10
-120.573846
 20
-91.875
 30
0.0
 11
-117.751623
 21
-92.404167
 31
0.0
 12
-120.573846
 22
-91.875
 32
0.0
 13
-117.751623
 23
-91.345833
 33
0.0
  0
LINE
  8
PLAN
  6
CONTINUOUS
 62
     5
  5
130
 10
4.424693
 20
-91.875
 30
0.0
 11
129.423231
 21
-91.875
 31
0.0
  0
SOLID
  8
0
  6
CONTINUOUS
 62
     5
  5
131
 10
129.423231
 20
-91.875
 30
0.0
 11
126.601009
 21
-91.345833
 31
0.0
 12
129.423231
 22
-91.875
 32
0.0
 13
126.601009
 23
-92.404167
 33
0.0
  0
TEXT
  8
PLAN
  6
CONTINUOUS
 62
     8
  5
132
 10
0.9289
 20
-90.570506
 30
0.0
 40
3.951111
  1
250
  7
TXT
  0
POINT
  8
PLAN
  6
CONTINUOUS
 62
     5
  5
133
 10
-120.573846
 20
-60.200141
 30
0.0
  0
POINT
  8
PLAN
  6
CONTINUOUS
 62
     5
  5
134
 10
129.423231
 20
-55.371094
 30
0.0
  0
POINT
  8
PLAN
  6
CONTINUOUS
 62
     5
  5
135
 10
4.424693
 20
-91.875
 30
0.0
  0
ENDBLK
  8
PLAN
  5
136
  0
BLOCK
  8
0
  5
137
  2
*D17
 70
    65
 10
0.0
 20
0.0
 30
0.0
  3

  0
LINE
  8
PLAN
  6
CONTINUOUS
 62
     5
  5
138
 10
-118.104401
 20
-60.200141
 30
0.0
 11
-110.366493
 21
-60.200141
 31
0.0
  0
LINE
  8
PLAN
  6
CONTINUOUS
 62
     5
  5
139
 10
-118.104401
 20
-58.600141
 30
0.0
 11
-110.366493
 21
-58.600141
 31
0.0
  0
LINE
  8
PLAN
  6
CONTINUOUS
 62
     5
  5
13A
 10
-112.835938
 20
-60.200141
 30
0.0
 11
-112.835938
 21
-58.600141
 31
0.0
  0
LINE
  8
PLAN
  6
CONTINUOUS
 62
     5
  5
13B
 10
-112.835938
 20
-75.818274
 30
0.0
 11
-112.835938
 21
-60.200141
 31
0.0
  0
SOLID
  8
0
  6
CONTINUOUS
 62
     5
  5
13C
 10
-112.835938
 20
-60.200141
 30
0.0
 11
-113.365104
 21
-63.022363
 31
0.0
 12
-112.835938
 22
-60.200141
 32
0.0
 13
-112.306771
 23
-63.022363
 33
0.0
  0
LINE
  8
PLAN
  6
CONTINUOUS
 62
     5
  5
13D
 10
-112.835938
 20
-52.42653
 30
0.0
 11
-112.835938
 21
-58.600141
 31
0.0
  0
SOLID
  8
0
  6
CONTINUOUS
 62
     5
  5
13E
 10
-112.835938
 20
-58.600141
 30
0.0
 11
-112.306771
 21
-55.777919
 31
0.0
 12
-112.835938
 22
-58.600141
 32
0.0
 13
-113.365104
 23
-55.777919
 33
0.0
  0
TEXT
  8
PLAN
  6
CONTINUOUS
 62
     8
  5
13F
 10
-114.140431
 20
-74.896975
 30
0.0
 40
3.951111
  1
1.6 
 50
90.0
  7
TXT
  0
POINT
  8
PLAN
  6
CONTINUOUS
 62
     5
  5
140
 10
-120.573846
 20
-60.200141
 30
0.0
  0
POINT
  8
PLAN
  6
CONTINUOUS
 62
     5
  5
141
 10
-120.573846
 20
-58.600141
 30
0.0
  0
POINT
  8
PLAN
  6
CONTINUOUS
 62
     5
  5
142
 10
-112.835938
 20
-71.009208
 30
0.0
  0
ENDBLK
  8
PLAN
  5
143
  0
BLOCK
  8
0
  5
144
  2
*D18
 70
    65
 10
0.0
 20
0.0
 30
0.0
  3

  0
LINE
  8
PLAN
  6
CONTINUOUS
 62
     5
  5
145
 10
-118.104401
 20
-58.600141
 30
0.0
 11
-114.194618
 21
-58.600141
 31
0.0
  0
LINE
  8
PLAN
  6
CONTINUOUS
 62
     5
  5
146
 10
-118.104401
 20
-55.600141
 30
0.0
 11
-114.194618
 21
-55.600141
 31
0.0
  0
LINE
  8
PLAN
  6
CONTINUOUS
 62
     5
  5
147
 10
-116.664063
 20
-58.600141
 30
0.0
 11
-116.664063
 21
-55.600141
 31
0.0
  0
LINE
  8
PLAN
  6
CONTINUOUS
 62
     5
  5
148
 10
-116.664063
 20
-44.791075
 30
0.0
 11
-116.664063
 21
-55.600141
 31
0.0
  0
SOLID
  8
0
  6
CONTINUOUS
 62
     5
  5
149
 10
-116.664063
 20
-55.600141
 30
0.0
 11
-116.134896
 21
-52.777919
 31
0.0
 12
-116.664063
 22
-55.600141
 32
0.0
 13
-117.193229
 23
-52.777919
 33
0.0
  0
LINE
  8
PLAN
  6
CONTINUOUS
 62
     5
  5
14A
 10
-116.664063
 20
-64.773752
 30
0.0
 11
-116.664063
 21
-58.600141
 31
0.0
  0
SOLID
  8
0
  6
CONTINUOUS
 62
     5
  5
14B
 10
-116.664063
 20
-58.600141
 30
0.0
 11
-117.193229
 21
-61.422363
 31
0.0
 12
-116.664063
 22
-58.600141
 32
0.0
 13
-116.134896
 23
-61.422363
 33
0.0
  0
TEXT
  8
PLAN
  6
CONTINUOUS
 62
     8
  5
14C
 10
-117.968556
 20
-46.980492
 30
0.0
 40
3.951111
  1
3
 50
90.0
  7
TXT
  0
POINT
  8
PLAN
  6
CONTINUOUS
 62
     5
  5
14D
 10
-120.573846
 20
-58.600141
 30
0.0
  0
POINT
  8
PLAN
  6
CONTINUOUS
 62
     5
  5
14E
 10
-120.573846
 20
-55.600141
 30
0.0
  0
POINT
  8
PLAN
  6
CONTINUOUS
 62
     5
  5
14F
 10
-116.664063
 20
-45.993341
 30
0.0
  0
ENDBLK
  8
PLAN
  5
150
  0
BLOCK
  8
0
  5
151
  2
*D19
 70
    65
 10
0.0
 20
0.0
 30
0.0
  3

  0
LINE
  8
PLAN
  6
CONTINUOUS
 62
     5
  5
152
 10
-120.573846
 20
-62.669586
 30
0.0
 11
-120.573846
 21
-85.867882
 31
0.0
  0
LINE
  8
PLAN
  6
CONTINUOUS
 62
     5
  5
153
 10
-107.573846
 20
-62.003822
 30
0.0
 11
-107.573846
 21
-85.867882
 31
0.0
  0
LINE
  8
PLAN
  6
CONTINUOUS
 62
     5
  5
154
 10
-114.073846
 20
-83.398438
 30
0.0
 11
-120.573846
 21
-83.398438
 31
0.0
  0
SOLID
  8
0
  6
CONTINUOUS
 62
     5
  5
155
 10
-120.573846
 20
-83.398438
 30
0.0
 11
-117.751623
 21
-83.927604
 31
0.0
 12
-120.573846
 22
-83.398438
 32
0.0
 13
-117.751623
 23
-82.869271
 33
0.0
  0
LINE
  8
PLAN
  6
CONTINUOUS
 62
     5
  5
156
 10
-114.073846
 20
-83.398438
 30
0.0
 11
-107.573846
 21
-83.398438
 31
0.0
  0
SOLID
  8
0
  6
CONTINUOUS
 62
     5
  5
157
 10
-107.573846
 20
-83.398438
 30
0.0
 11
-110.396068
 21
-82.869271
 31
0.0
 12
-107.573846
 22
-83.398438
 32
0.0
 13
-110.396068
 23
-83.927604
 33
0.0
  0
TEXT
  8
PLAN
  6
CONTINUOUS
 62
     8
  5
158
 10
-116.315317
 20
-82.093944
 30
0.0
 40
3.951111
  1
13
  7
TXT
  0
POINT
  8
PLAN
  6
CONTINUOUS
 62
     5
  5
159
 10
-120.573846
 20
-60.200141
 30
0.0
  0
POINT
  8
PLAN
  6
CONTINUOUS
 62
     5
  5
15A
 10
-107.573846
 20
-59.534377
 30
0.0
  0
POINT
  8
PLAN
  6
CONTINUOUS
 62
     5
  5
15B
 10
-114.073846
 20
-83.398438
 30
0.0
  0
ENDBLK
  8
PLAN
  5
15C
  0
ENDSEC
  0
SECTION
  2
ENTITIES
  0
TEXT
  8
PLAN
  6
CONTINUOUS
 62
     8
  5
15D
 10
-125.18983
 20
82.4161
 30
0.0
 40
8.89
  1
Easy Mini catapult glider
  7
TXT
  0
TEXT
  8
PLAN
  6
CONTINUOUS
 62
     8
  5
15E
 10
-125.18983
 20
67.192096
 30
0.0
 40
5.926666
  1
Chuck Marcos - MA, May 1999 p45
  7
TXT
  0
TEXT
  8
PLAN
  6
CONTINUOUS
 62
     8
  5
15F
 10
52.046594
 20
56.005913
 30
0.0
 40
3.457222
  1
Grain
  7
TXT
  0
LINE
  8
PLAN
  6
CONTINUOUS
 62
     1
  5
160
 10
38.870144
 20
50.31989
 30
0.0
 11
0.870144
 21
50.31989
 31
0.0
  0
LINE
  8
PLAN
  6
CONTINUOUS
 62
     1
  5
161
 10
0.870144
 20
50.31989
 30
0.0
 11
3.870144
 21
72.31989
 31
0.0
  0
LINE
  8
PLAN
  6
CONTINUOUS
 62
     1
  5
162
 10
3.870144
 20
72.31989
 30
0.0
 11
38.870144
 21
83.31989
 31
0.0
  0
LINE
  8
PLAN
  6
CONTINUOUS
 62
     1
  5
163
 10
-17.790541
 20
40.158361
 30
0.0
 11
33.209459
 21
40.158361
 31
0.0
  0
LINE
  8
PLAN
  6
HIDDEN
 62
     1
  5
164
 10
33.209459
 20
40.158361
 30
0.0
 11
33.209459
 21
-10.841639
 31
0.0
  0
LINE
  8
PLAN
  6
CONTINUOUS
 62
     1
  5
165
 10
33.209459
 20
-10.841639
 30
0.0
 11
-17.790541
 21
-10.841639
 31
0.0
  0
LINE
  8
PLAN
  6
HIDDEN
 62
     1
  5
166
 10
-17.790541
 20
-16.125422
 30
0.0
 11
-17.790541
 21
44.415118
 31
0.0
  0
LINE
  8
PLAN
  6
CONTINUOUS
 62
     1
  5
167
 10
-17.790541
 20
40.158361
 30
0.0
 11
-68.790541
 21
40.158361
 31
0.0
  0
LINE
  8
PLAN
  6
HIDDEN
 62
     1
  5
168
 10
-68.790541
 20
40.158361
 30
0.0
 11
-68.790541
 21
-10.841639
 31
0.0
  0
LINE
  8
PLAN
  6
CONTINUOUS
 62
     1
  5
169
 10
-68.790541
 20
-10.841639
 30
0.0
 11
-17.790541
 21
-10.841639
 31
0.0
  0
LINE
  8
PLAN
  6
CONTINUOUS
 62
     1
  5
16A
 10
83.209459
 20
-4.841639
 30
0.0
 11
33.209459
 21
-10.841639
 31
0.0
  0
LINE
  8
PLAN
  6
CONTINUOUS
 62
     1
  5
16B
 10
83.209459
 20
-4.841639
 30
0.0
 11
80.209459
 21
35.158361
 31
0.0
  0
LINE
  8
PLAN
  6
CONTINUOUS
 62
     1
  5
16C
 10
80.209459
 20
35.158361
 30
0.0
 11
33.209459
 21
40.158361
 31
0.0
  0
TEXT
  8
PLAN
  6
CONTINUOUS
 62
     8
  5
16D
 10
-55.867577
 20
32.852132
 30
0.0
 40
3.457222
  1
Leading edge
  7
TXT
  0
TEXT
  8
PLAN
  6
CONTINUOUS
 62
     8
  5
16E
 10
-60.124334
 20
12.987267
 30
0.0
 40
3.457222
  1
1.6mm balsa wing
  7
TXT
  0
LINE
  8
PLAN
  6
CONTINUOUS
 62
     1
  5
16F
 10
-118.790541
 20
-4.841639
 30
0.0
 11
-68.790541
 21
-10.841639
 31
0.0
  0
LINE
  8
PLAN
  6
CONTINUOUS
 62
     1
  5
170
 10
-118.790541
 20
-4.841639
 30
0.0
 11
-115.790541
 21
35.158361
 31
0.0
  0
LINE
  8
PLAN
  6
CONTINUOUS
 62
     1
  5
171
 10
-115.790541
 20
35.158361
 30
0.0
 11
-68.790541
 21
40.158361
 31
0.0
  0
LINE
  8
PLAN
  6
CONTINUOUS
 62
     2
  5
172
 10
128.770904
 20
38.894637
 30
0.0
 11
128.770904
 21
58.894637
 31
0.0
  0
LINE
  8
PLAN
  6
CONTINUOUS
 62
     2
  5
173
 10
128.770904
 20
58.894637
 30
0.0
 11
113.770904
 21
88.894637
 31
0.0
  0
LINE
  8
PLAN
  6
CONTINUOUS
 62
     2
  5
174
 10
113.770904
 20
88.894637
 30
0.0
 11
106.770904
 21
88.894637
 31
0.0
  0
LINE
  8
PLAN
  6
CONTINUOUS
 62
     2
  5
175
 10
106.770904
 20
88.894637
 30
0.0
 11
106.770904
 21
68.894637
 31
0.0
  0
LINE
  8
PLAN
  6
CONTINUOUS
 62
     2
  5
176
 10
106.770904
 20
68.894637
 30
0.0
 11
100.770904
 21
68.894637
 31
0.0
  0
LINE
  8
PLAN
  6
CONTINUOUS
 62
     2
  5
177
 10
100.770904
 20
68.894637
 30
0.0
 11
100.770904
 21
88.894637
 31
0.0
  0
LINE
  8
PLAN
  6
CONTINUOUS
 62
     2
  5
178
 10
100.770904
 20
88.894637
 30
0.0
 11
93.770904
 21
88.894637
 31
0.0
  0
LINE
  8
PLAN
  6
CONTINUOUS
 62
     2
  5
179
 10
93.770904
 20
88.894637
 30
0.0
 11
78.770904
 21
58.894637
 31
0.0
  0
LINE
  8
PLAN
  6
CONTINUOUS
 62
     2
  5
17A
 10
78.770904
 20
58.894637
 30
0.0
 11
78.770904
 21
38.894637
 31
0.0
  0
LINE
  8
PLAN
  6
CONTINUOUS
 62
     2
  5
17B
 10
78.770904
 20
38.894637
 30
0.0
 11
128.770904
 21
38.894637
 31
0.0
  0
LINE
  8
PLAN
  6
CONTINUOUS
 62
     2
  5
17C
 10
103.770904
 20
38.894637
 30
0.0
 11
103.770904
 21
53.894637
 31
0.0
  0
LINE
  8
PLAN
  6
HIDDEN
 62
     2
  5
17D
 10
128.770904
 20
53.894637
 30
0.0
 11
78.770904
 21
53.894637
 31
0.0
  0
TEXT
  8
PLAN
  6
CONTINUOUS
 62
     8
  5
17E
 10
84.139813
 20
54.994158
 30
0.0
 40
3.457222
  1
Bend
  7
TXT
  0
TEXT
  8
PLAN
  6
CONTINUOUS
 62
     8
  5
17F
 10
84.139813
 20
49.56138
 30
0.0
 40
3.457222
  1
back
  7
TXT
  0
TEXT
  8
PLAN
  6
CONTINUOUS
 62
     8
  5
180
 10
108.734408
 20
54.994158
 30
0.0
 40
3.457222
  1
Bend
  7
TXT
  0
TEXT
  8
PLAN
  6
CONTINUOUS
 62
     8
  5
181
 10
108.734408
 20
49.56138
 30
0.0
 40
3.457222
  1
forward
  7
TXT
  0
TEXT
  8
PLAN
  6
CONTINUOUS
 62
     8
  5
182
 10
98.894393
 20
46.454822
 30
0.0
 40
3.457222
  1
Cut
 50
269.7
  7
TXT
  0
TEXT
  8
PLAN
  6
CONTINUOUS
 62
     8
  5
183
 10
81.301975
 20
31.115434
 30
0.0
 40
3.457222
  1
Cardboard cradle for CG
  7
TXT
  0
DIMENSION
  8
WIRE
  6
CONTINUOUS
 62
     5
  5
184
  2
*D0
 10
38.870144
 20
87.226563
 30
0.0
 11
38.870144
 21
87.226563
 31
0.0
 13
3.870144
 23
72.31989
 33
0.0
 14
73.870144
 24
72.31989
 34
0.0
  3
STANDARD
  0
DIMENSION
  8
WIRE
  6
CONTINUOUS
 62
     5
  5
185
  2
*D1
 10
-8.736656
 20
87.226563
 30
0.0
 11
-8.736656
 21
87.226563
 31
0.0
 13
0.870144
 23
50.31989
 33
0.0
 14
3.870144
 24
72.31989
 34
0.0
  3
STANDARD
  0
DIMENSION
  8
WIRE
  6
CONTINUOUS
 62
     5
  5
186
  2
*D2
 10
37.007813
 20
66.81989
 30
0.0
 11
37.007813
 21
66.81989
 31
0.0
 13
38.870144
 23
50.31989
 33
0.0
 14
38.870144
 24
83.31989
 34
0.0
 50
90.0
  3
STANDARD
  0
DIMENSION
  8
WIRE
  6
CONTINUOUS
 62
     5
  5
187
  2
*D3
 10
-5.648437
 20
61.31989
 30
0.0
 11
-5.648437
 21
61.31989
 31
0.0
 13
0.870144
 23
50.31989
 33
0.0
 14
3.870144
 24
72.31989
 34
0.0
 50
90.0
  3
STANDARD
  0
DIMENSION
  8
WIRE
  6
CONTINUOUS
 62
     5
  5
188
  2
*D4
 10
72.828125
 20
15.158361
 30
0.0
 11
72.828125
 21
15.158361
 31
0.0
 13
80.209459
 23
35.158361
 33
0.0
 14
83.209459
 24
-4.841639
 34
0.0
 50
90.0
  3
STANDARD
  0
DIMENSION
  8
WIRE
  6
CONTINUOUS
 62
     5
  5
189
  2
*D5
 10
26.34375
 20
14.658361
 30
0.0
 11
26.34375
 21
14.658361
 31
0.0
 13
33.209459
 23
40.158361
 33
0.0
 14
33.209459
 24
-10.841639
 34
0.0
 50
90.0
  3
STANDARD
  0
DIMENSION
  8
WIRE
  6
CONTINUOUS
 62
     5
  5
18A
  2
*D6
 10
-118.578125
 20
-20.448438
 30
0.0
 11
-118.578125
 21
-20.448438
 31
0.0
 13
-68.790541
 23
-10.841639
 33
0.0
 14
-118.790541
 24
-4.841639
 34
0.0
 50
90.0
  3
STANDARD
  0
DIMENSION
  8
WIRE
  6
CONTINUOUS
 62
     5
  5
18B
  2
*D7
 10
-117.290541
 20
47.03125
 30
0.0
 11
-117.290541
 21
47.03125
 31
0.0
 13
-118.790541
 23
-4.841639
 33
0.0
 14
-115.790541
 24
35.158361
 34
0.0
  3
STANDARD
  0
DIMENSION
  8
WIRE
  6
CONTINUOUS
 62
     5
  5
18C
  2
*D8
 10
-92.290541
 20
47.03125
 30
0.0
 11
-92.290541
 21
47.03125
 31
0.0
 13
-115.790541
 23
35.158361
 33
0.0
 14
-68.790541
 24
40.158361
 34
0.0
  3
STANDARD
  0
DIMENSION
  8
WIRE
  6
CONTINUOUS
 62
     5
  5
18D
  2
*D9
 10
-43.290541
 20
47.03125
 30
0.0
 11
-43.290541
 21
47.03125
 31
0.0
 13
-68.790541
 23
40.158361
 33
0.0
 14
-17.790541
 24
44.415118
 34
0.0
  3
STANDARD
  0
DIMENSION
  8
WIRE
  6
CONTINUOUS
 62
     5
  5
18E
  2
*D10
 10
-99.573846
 20
-27.254617
 30
0.0
 11
-99.573846
 21
-27.254617
 31
0.0
 13
-107.573846
 23
-31.132677
 33
0.0
 14
-91.573846
 24
-32.576472
 34
0.0
  3
STANDARD
  0
DIMENSION
  8
WIRE
  6
CONTINUOUS
 62
     5
  5
18F
  2
*D11
 10
-75.152866
 20
-27.254617
 30
0.0
 11
-75.152866
 21
-27.254617
 31
0.0
 13
-91.573846
 23
-32.576472
 33
0.0
 14
-58.731886
 24
-59.23851
 34
0.0
  3
STANDARD
  0
DIMENSION
  8
WIRE
  6
CONTINUOUS
 62
     5
  5
190
  2
*D12
 10
-109.769369
 20
-44.933506
 30
0.0
 11
-109.769369
 21
-44.933506
 31
0.0
 13
-107.573846
 23
-58.734335
 33
0.0
 14
-107.573846
 24
-31.132677
 34
0.0
 50
90.0
  3
STANDARD
  0
LINE
  8
WIRE
  6
CONTINUOUS
 62
     1
  5
191
 10
-65.573846
 20
-53.684012
 30
0.0
 11
-58.731886
 21
-59.23851
 31
0.0
  0
LINE
  8
WIRE
  6
CONTINUOUS
 62
     1
  5
192
 10
-107.573846
 20
-55.147238
 30
0.0
 11
-107.573846
 21
-58.734335
 31
0.0
  0
DIMENSION
  8
WIRE
  6
CONTINUOUS
 62
     5
  5
193
  2
*D13
 10
99.172776
 20
-55.200141
 30
0.0
 11
99.172776
 21
-55.200141
 31
0.0
 13
100.777506
 23
-60.200141
 33
0.0
 14
100.777506
 24
-50.200141
 34
0.0
 50
90.0
  3
STANDARD
  0
TEXT
  8
PLAN
  6
CONTINUOUS
 62
     8
  5
194
 10
-23.232442
 20
-21.066787
 30
0.0
 40
3.457222
  1
Centre
  7
TXT
  0
TEXT
  8
PLAN
  6
CONTINUOUS
 62
     8
  5
195
 10
-37.510336
 20
-25.973882
 30
0.0
 40
3.457222
  1
line
  7
TXT
  0
TEXT
  8
PLAN
  6
CONTINUOUS
 62
     8
  5
196
 10
10.348639
 20
-19.417793
 30
0.0
 40
3.457222
  1
Dihedral at tips only.
  7
TXT
  0
TEXT
  8
PLAN
  6
CONTINUOUS
 62
     8
  5
197
 10
10.348639
 20
-24.850571
 30
0.0
 40
3.457222
  1
Score with pen and bend up
  7
TXT
  0
TEXT
  8
PLAN
  6
CONTINUOUS
 62
     8
  5
198
 10
72.781071
 20
-18.94482
 30
0.0
 40
3.457222
  1
20mm
  7
TXT
  0
TEXT
  8
PLAN
  6
CONTINUOUS
 62
     8
  5
199
 10
72.781071
 20
-24.377598
 30
0.0
 40
3.457222
  1
dihedral
  7
TXT
  0
LINE
  8
PLAN
  6
CONTINUOUS
 62
     1
  5
19A
 10
38.870144
 20
50.31989
 30
0.0
 11
76.870144
 21
50.31989
 31
0.0
  0
LINE
  8
PLAN
  6
CONTINUOUS
 62
     1
  5
19B
 10
76.870144
 20
50.31989
 30
0.0
 11
73.870144
 21
72.31989
 31
0.0
  0
LINE
  8
PLAN
  6
CONTINUOUS
 62
     1
  5
19C
 10
73.870144
 20
72.31989
 30
0.0
 11
38.870144
 21
83.31989
 31
0.0
  0
TEXT
  8
PLAN
  6
CONTINUOUS
 62
     8
  5
19D
 10
57.113476
 20
-42.084073
 30
0.0
 40
3.457222
  1
Round the LE
  7
TXT
  0
LINE
  8
PLAN
  6
CONTINUOUS
 62
     5
  5
19E
 10
76.064668
 20
-42.936628
 30
0.0
 11
83.868722
 21
-47.429871
 31
0.0
  0
SOLID
  8
0
  6
CONTINUOUS
 62
     5
  5
19F
 10
83.868722
 20
-47.429871
 30
0.0
 11
81.773721
 21
-45.709396
 31
0.0
 12
83.868722
 22
-47.429871
 32
0.0
 13
81.328973
 23
-46.481854
 33
0.0
  0
ARC
  8
PLAN
  6
CONTINUOUS
 62
     1
  5
1A0
 10
84.626154
 20
-49.400141
 30
0.0
 40
0.8
 50
-90.0
 51
90.0
  0
LINE
  8
WIRE
  6
CONTINUOUS
 62
     5
  5
1A1
 10
110.697269
 20
-61.000141
 30
0.0
 11
110.697269
 21
-50.200141
 31
0.0
  0
LINE
  8
WIRE
  6
CONTINUOUS
 62
     5
  5
1A2
 10
111.197269
 20
-61.000141
 30
0.0
 11
111.197269
 21
-50.200141
 31
0.0
  0
LINE
  8
WIRE
  6
CONTINUOUS
 62
     5
  5
1A3
 10
111.697269
 20
-61.000141
 30
0.0
 11
111.697269
 21
-50.200141
 31
0.0
  0
LINE
  8
WIRE
  6
CONTINUOUS
 62
     5
  5
1A4
 10
112.197269
 20
-61.000141
 30
0.0
 11
112.197269
 21
-50.200141
 31
0.0
  0
LINE
  8
WIRE
  6
CONTINUOUS
 62
     5
  5
1A5
 10
112.697269
 20
-61.000141
 30
0.0
 11
112.697269
 21
-50.200141
 31
0.0
  0
LINE
  8
WIRE
  6
CONTINUOUS
 62
     5
  5
1A6
 10
113.197269
 20
-61.000141
 30
0.0
 11
113.197269
 21
-50.200141
 31
0.0
  0
LINE
  8
WIRE
  6
CONTINUOUS
 62
     5
  5
1A7
 10
113.697269
 20
-61.000141
 30
0.0
 11
113.697269
 21
-50.200141
 31
0.0
  0
LINE
  8
WIRE
  6
CONTINUOUS
 62
     5
  5
1A8
 10
114.197269
 20
-61.000141
 30
0.0
 11
114.197269
 21
-50.200141
 31
0.0
  0
LINE
  8
WIRE
  6
CONTINUOUS
 62
     5
  5
1A9
 10
114.697269
 20
-61.000141
 30
0.0
 11
114.697269
 21
-50.200141
 31
0.0
  0
LINE
  8
WIRE
  6
CONTINUOUS
 62
     5
  5
1AA
 10
115.197269
 20
-61.000141
 30
0.0
 11
115.197269
 21
-50.200141
 31
0.0
  0
ARC
  8
WIRE
  6
CONTINUOUS
 62
     8
  5
1AB
 10
108.826154
 20
-59.800141
 30
0.0
 40
1.2
 50
180.0
 51
-90.0
  0
ARC
  8
WIRE
  6
CONTINUOUS
 62
     8
  5
1AC
 10
108.826154
 20
-59.800141
 30
0.0
 40
0.4
 50
180.0
 51
-90.0
  0
ARC
  8
WIRE
  6
CONTINUOUS
 62
     8
  5
1AD
 10
116.426154
 20
-62.700141
 30
0.0
 40
1.7
 50
-90.0
 51
90.0
  0
ARC
  8
WIRE
  6
CONTINUOUS
 62
     8
  5
1AE
 10
116.426154
 20
-62.700141
 30
0.0
 40
2.5
 50
-90.0
 51
90.0
  0
LINE
  8
WIRE
  6
CONTINUOUS
 62
     8
  5
1AF
 10
116.426154
 20
-65.200141
 30
0.0
 11
116.426154
 21
-64.400141
 31
0.0
  0
LINE
  8
WIRE
  6
CONTINUOUS
 62
     8
  5
1B0
 10
116.426154
 20
-61.000141
 30
0.0
 11
108.826154
 21
-61.000141
 31
0.0
  0
LINE
  8
WIRE
  6
HIDDEN
 62
     8
  5
1B1
 10
107.626154
 20
-59.800141
 30
0.0
 11
107.626154
 21
-57.200141
 31
0.0
  0
LINE
  8
WIRE
  6
HIDDEN
 62
     8
  5
1B2
 10
107.626154
 20
-57.200141
 30
0.0
 11
108.426154
 21
-57.200141
 31
0.0
  0
LINE
  8
WIRE
  6
HIDDEN
 62
     8
  5
1B3
 10
108.426154
 20
-57.200141
 30
0.0
 11
108.426154
 21
-59.800141
 31
0.0
  0
LINE
  8
WIRE
  6
CONTINUOUS
 62
     8
  5
1B4
 10
108.426154
 20
-60.200141
 30
0.0
 11
116.426154
 21
-60.200141
 31
0.0
  0
TEXT
  8
PLAN
  6
CONTINUOUS
 62
     8
  5
1B5
 10
-89.145521
 20
-47.052512
 30
0.0
 40
3.457222
  1
Grain
 50
322.7
  7
TXT
  0
TEXT
  8
PLAN
  6
CONTINUOUS
 62
     8
  5
1B6
 10
-105.204936
 20
-41.50568
 30
0.0
 40
3.457222
  1
0.8mm
  7
TXT
  0
TEXT
  8
PLAN
  6
CONTINUOUS
 62
     8
  5
1B7
 10
-105.204936
 20
-46.938458
 30
0.0
 40
3.457222
  1
balsa
  7
TXT
  0
TEXT
  8
PLAN
  6
CONTINUOUS
 62
     8
  5
1B8
 10
-105.204936
 20
-52.371236
 30
0.0
 40
3.457222
  1
fin
  7
TXT
  0
TEXT
  8
PLAN
  6
CONTINUOUS
 62
     8
  5
1B9
 10
-24.326558
 20
-58.046911
 30
0.0
 40
3.457222
  1
2.5mm by 10mm medium balsa blank
  7
TXT
  0
LINE
  8
PLAN
  6
CONTINUOUS
 62
     5
  5
1BA
 10
53.960938
 20
-64.736328
 30
0.0
 11
53.960938
 21
-51.213655
 31
0.0
  0
SOLID
  8
0
  6
CONTINUOUS
 62
     5
  5
1BB
 10
53.960938
 20
-51.213655
 30
0.0
 11
53.673576
 21
-51.979951
 31
0.0
 12
53.960938
 22
-51.213655
 32
0.0
 13
54.248299
 23
-51.979951
 33
0.0
  0
TEXT
  8
PLAN
  6
CONTINUOUS
 62
     8
  5
1BC
 10
45.100701
 20
-69.07581
 30
0.0
 40
3.457222
  1
Balance
  7
TXT
  0
TEXT
  8
PLAN
  6
CONTINUOUS
 62
     8
  5
1BD
 10
45.100701
 20
-74.508588
 30
0.0
 40
3.457222
  1
point (CG)
  7
TXT
  0
LINE
  8
PLAN
  6
HIDDEN
 62
     1
  5
1BE
 10
34.426154
 20
-60.200141
 30
0.0
 11
-120.573846
 21
-60.200141
 31
0.0
  0
DIMENSION
  8
PLAN
  6
CONTINUOUS
 62
     5
  5
1BF
  2
*D14
 10
44.426154
 20
-43.551492
 30
0.0
 11
44.426154
 21
-43.551492
 31
0.0
 13
34.426154
 23
-48.600141
 33
0.0
 14
54.426154
 24
-51.213655
 34
0.0
  3
STANDARD
  0
DIMENSION
  8
PLAN
  6
CONTINUOUS
 62
     5
  5
1C0
  2
*D15
 10
81.924693
 20
-33.61906
 30
0.0
 11
81.924693
 21
-33.61906
 31
0.0
 13
34.426154
 23
-48.600141
 33
0.0
 14
129.423231
 24
-55.371094
 34
0.0
  3
STANDARD
  0
LINE
  8
PLAN
  6
CONTINUOUS
 62
     1
  5
1C1
 10
-107.573846
 20
-58.734335
 30
0.0
 11
-107.573846
 21
-59.534377
 31
0.0
  0
LINE
  8
PLAN
  6
CONTINUOUS
 62
     1
  5
1C2
 10
-107.573846
 20
-59.534377
 30
0.0
 11
-74.573846
 21
-59.875022
 31
0.0
  0
LINE
  8
PLAN
  6
CONTINUOUS
 62
     1
  5
1C3
 10
-74.573846
 20
-59.875022
 30
0.0
 11
-74.573846
 21
-59.07498
 31
0.0
  0
LINE
  8
PLAN
  6
CONTINUOUS
 62
     1
  5
1C4
 10
124.426154
 20
-60.200141
 30
0.0
 11
34.426154
 21
-60.200141
 31
0.0
  0
TEXT
  8
WIRE
  6
CONTINUOUS
 62
     8
  5
1C5
 10
77.690967
 20
-70.653618
 30
0.0
 40
3.457222
  1
Make hook from paper clip.
  7
TXT
  0
TEXT
  8
WIRE
  6
CONTINUOUS
 62
     8
  5
1C6
 10
77.690967
 20
-76.086396
 30
0.0
 40
3.457222
  1
Bind with thread and glue.
  7
TXT
  0
LINE
  8
WIRE
  6
CONTINUOUS
 62
     5
  5
1C7
 10
115.697269
 20
-61.000141
 30
0.0
 11
115.697269
 21
-50.200141
 31
0.0
  0
LINE
  8
PLAN
  6
HIDDEN
 62
     1
  5
1C8
 10
38.870144
 20
50.31989
 30
0.0
 11
38.870144
 21
83.31989
 31
0.0
  0
TEXT
  8
PLAN
  6
CONTINUOUS
 62
     8
  5
1C9
 10
4.333014
 20
59.753449
 30
0.0
 40
3.457222
  1
0.8mm balsa
  7
TXT
  0
TEXT
  8
PLAN
  6
CONTINUOUS
 62
     8
  5
1CA
 10
4.333014
 20
54.320671
 30
0.0
 40
3.457222
  1
stabiliser
  7
TXT
  0
LINE
  8
PLAN
  6
CONTINUOUS
 62
     1
  5
1CB
 10
34.426154
 20
-60.200141
 30
0.0
 11
-120.573846
 21
-58.600141
 31
0.0
  0
LINE
  8
PLAN
  6
CONTINUOUS
 62
     1
  5
1CC
 10
-120.573846
 20
-58.600141
 30
0.0
 11
-120.573846
 21
-55.600141
 31
0.0
  0
LINE
  8
PLAN
  6
CONTINUOUS
 62
     1
  5
1CD
 10
-120.573846
 20
-55.600141
 30
0.0
 11
34.426154
 21
-50.200141
 31
0.0
  0
LINE
  8
PLAN
  6
CONTINUOUS
 62
     1
  5
1CE
 10
34.426154
 20
-50.200141
 30
0.0
 11
124.426154
 21
-50.200141
 31
0.0
  0
ARC
  8
PLAN
  6
CONTINUOUS
 62
     1
  5
1CF
 10
124.426154
 20
-55.200141
 30
0.0
 40
5.0
 50
-90.0
 51
90.0
  0
LINE
  8
PLAN
  6
CONTINUOUS
 62
     1
  5
1D0
 10
34.426154
 20
-50.200141
 30
0.0
 11
34.426154
 21
-48.600141
 31
0.0
  0
LINE
  8
PLAN
  6
CONTINUOUS
 62
     1
  5
1D1
 10
34.426154
 20
-48.600141
 30
0.0
 11
84.626154
 21
-48.600141
 31
0.0
  0
LINE
  8
PLAN
  6
CONTINUOUS
 62
     1
  5
1D2
 10
-107.573846
 20
-55.147238
 30
0.0
 11
-107.573846
 21
-31.132677
 31
0.0
  0
LINE
  8
PLAN
  6
CONTINUOUS
 62
     1
  5
1D3
 10
-107.573846
 20
-31.132677
 30
0.0
 11
-91.573846
 21
-32.576472
 31
0.0
  0
LINE
  8
PLAN
  6
CONTINUOUS
 62
     1
  5
1D4
 10
-91.573846
 20
-32.576472
 30
0.0
 11
-65.573846
 21
-53.684012
 31
0.0
  0
LINE
  8
PLAN
  6
CONTINUOUS
 62
     5
  5
1D5
 10
-76.587359
 20
-49.794736
 30
0.0
 11
-89.830602
 21
-39.38933
 31
0.0
  0
SOLID
  8
0
  6
CONTINUOUS
 62
     5
  5
1D6
 10
-89.830602
 20
-39.38933
 30
0.0
 11
-87.612061
 21
-43.040094
 31
0.0
 12
-89.830602
 22
-39.38933
 32
0.0
 13
-85.758597
 23
-40.681139
 33
0.0
  0
LINE
  8
PLAN
  6
CONTINUOUS
 62
     5
  5
1D7
 10
69.613387
 20
55.04962
 30
0.0
 11
42.180954
 21
55.04962
 31
0.0
  0
SOLID
  8
0
  6
CONTINUOUS
 62
     5
  5
1D8
 10
42.180954
 20
55.04962
 30
0.0
 11
46.180954
 21
53.54962
 31
0.0
 12
42.180954
 22
55.04962
 32
0.0
 13
46.180954
 23
56.54962
 33
0.0
  0
LINE
  8
PLAN
  6
CONTINUOUS
 62
     5
  5
1D9
 10
-24.412162
 20
-2.409206
 30
0.0
 11
-58.939189
 21
-2.409206
 31
0.0
  0
SOLID
  8
0
  6
CONTINUOUS
 62
     5
  5
1DA
 10
-58.939189
 20
-2.409206
 30
0.0
 11
-54.939189
 21
-3.909206
 31
0.0
 12
-58.939189
 22
-2.409206
 32
0.0
 13
-54.939189
 23
-0.909206
 33
0.0
  0
TEXT
  8
PLAN
  6
CONTINUOUS
 62
     8
  5
1DB
 10
-47.827037
 20
-0.728949
 30
0.0
 40
3.457222
  1
Grain
  7
TXT
  0
DIMENSION
  8
PLAN
  6
CONTINUOUS
 62
     5
  5
1DC
  2
*D16
 10
4.424693
 20
-91.875
 30
0.0
 11
4.424693
 21
-91.875
 31
0.0
 13
-120.573846
 23
-60.200141
 33
0.0
 14
129.423231
 24
-55.371094
 34
0.0
  3
STANDARD
  0
DIMENSION
  8
PLAN
  6
CONTINUOUS
 62
     5
  5
1DD
  2
*D17
 10
-112.835938
 20
-71.009208
 30
0.0
 11
-112.835938
 21
-71.009208
 31
0.0
 13
-120.573846
 23
-60.200141
 33
0.0
 14
-120.573846
 24
-58.600141
 34
0.0
 50
90.0
  3
STANDARD
  0
DIMENSION
  8
PLAN
  6
CONTINUOUS
 62
     5
  5
1DE
  2
*D18
 10
-116.664063
 20
-45.993341
 30
0.0
 11
-116.664063
 21
-45.993341
 31
0.0
 13
-120.573846
 23
-58.600141
 33
0.0
 14
-120.573846
 24
-55.600141
 34
0.0
 50
90.0
  3
STANDARD
  0
DIMENSION
  8
PLAN
  6
CONTINUOUS
 62
     5
  5
1DF
  2
*D19
 10
-114.073846
 20
-83.398438
 30
0.0
 11
-114.073846
 21
-83.398438
 31
0.0
 13
-120.573846
 23
-60.200141
 33
0.0
 14
-107.573846
 24
-59.534377
 34
0.0
  3
STANDARD
  0
ENDSEC
  0
EOF
